Tuesday, 23 February 2016

Scorpion S02E17 HDTV x264-[rartv]



Scorpion S02E17 HDTV x264-[rartv]

Berdasarkan kisah nyata, Scorpion adalah drama beroktan tinggi sekitar eksentrik jenius Walter O'Brien dan timnya dari orang aneh brilian yang terdiri dari baris terakhir pertahanan terhadap kompleks, ancaman teknologi tinggi dari zaman modern. Sebagai think tank baru Homeland Security, O'Brien "Scorpion" tim termasuk Toby Curtis, seorang behavioris ahli yang bisa membaca siapa pun; Senang Quinn, ajaib mekanik; dan Sylvester Dodd, seorang guru statistik.

Video
ID : 1
Format : AVC
Format/Info : Advanced Video Codec
Format profile : High@L3.1
Format settings, CABAC : Yes
Format settings, ReFrames : 5 frames
Codec ID : avc1
Codec ID/Info : Advanced Video Coding
Duration : 39mn 25s
Bit rate : 944 Kbps
Maximum bit rate : 4 553 Kbps
Width : 720 pixels
Height : 404 pixels
Display aspect ratio : 16:9
Frame rate mode : Constant
Frame rate : 23.976 (24000/1001) fps
Color space : YUV
Chroma subsampling : 4:2:0
Bit depth : 8 bits
Scan type : Progressive
Bits/(Pixel*Frame) : 0.135
Stream size : 266 MiB (88%)
Writing library : x264 core 148 r2665 a01e339
Encoding settings : cabac=1 / ref=5 / deblock=1:1:1 / analyse=0x3:0x133 / me=umh / subme=9 / psy=1 / psy_rd=1.00:0.00 / mixed_ref=1 / me_range=16 / chroma_me=1 / trellis=2 / 8x8dct=1 / cqm=0 / deadzone=21,11 / fast_pskip=0 / chroma_qp_offset=-2 / threads=16 / lookahead_threads=1 / sliced_threads=0 / nr=0 / decimate=1 / interlaced=0 / bluray_compat=0 / constrained_intra=0 / bframes=3 / b_pyramid=2 / b_adapt=2 / b_bias=0 / direct=3 / weightb=1 / open_gop=0 / weightp=2 / keyint=250 / keyint_min=23 / scenecut=40 / intra_refresh=0 / rc_lookahead=60 / rc=crf / mbtree=1 / crf=19.0 / qcomp=0.60 / qpmin=0 / qpmax=69 / qpstep=4 / ip_ratio=1.40 / aq=1:1.00
Encoded date : UTC 2016-02-22 15:34:11
Tagged date : UTC 2016-02-22 15:34:48
Color range : Limited
Matrix coefficients : BT.709

Audio
ID : 2
Format : AAC
Format/Info : Advanced Audio Codec
Format profile : LC
Codec ID : 40
Duration : 39mn 25s
Bit rate mode : Variable
Bit rate : 123 Kbps
Maximum bit rate : 153 Kbps
Channel(s) : 2 channels
Channel positions : Front: L R
Sampling rate : 48.0 KHz
Frame rate : 46.875 fps (1024 spf)
Compression mode : Lossy
Stream size : 34.8 MiB (12%)
Encoded date : UTC 2016-02-22 15:34:48
Tagged date : UTC 2016-02-22 15:34:48


Screenshot :

 
Link Download :

Ada Masalah Hubungi :
Twitter :: @Androidsofweb
Facebook :: Muhammad Nur
Semoga Bermanfaat .

RELATED POST :

 

MEMBER

Iklan ASW

Join with Fans Page

Modified By AndroidSoftWeb | Published By AndroidSoftWeb.Com